#TITLE:~300~;
#SUBTITLE:;
#ARTIST:Detach M-Style;
#TITLETRANSLIT:;
#SUBTITLETRANSLIT:;
#ARTISTTRANSLIT:;
#CREDIT:;
#BANNER:300-bn.png;
#BACKGROUND:300grey.png;
#LYRICSPATH:;
#CDTITLE:!cdtitle.png;
#MUSIC:300.mp3;
#OFFSET:-0.023;
#SAMPLESTART:87.060;
#SAMPLELENGTH:14.520;
#SELECTABLE:YES;
#DISPLAYBPM:*;
#BPMS:0.000=140.000,48.000=150.000,80.000=160.000,112.000=170.000,144.000=180.000,176.000=190.000,208.000=200.000,240.000=210.000,272.000=220.000,304.000=230.000,320.000=240.000,336.000=250.000,352.000=260.000,368.000=270.000,384.000=280.000,400.000=290.000,416.000=300.000,464.000=35.000;
#STOPS:;
#BGCHANGES:0.000=300color.png=1.000=1=0=1,
4.000=300test0.png=1.000=0=0=1,
4.500=300test1.png=1.000=0=0=1,
5.000=300test2.png=1.000=0=0=1,
5.500=300test3.png=1.000=0=0=1,
6.000=300test4.png=1.000=0=0=1,
6.500=300test5.png=1.000=0=0=1,
7.000=300test6.png=1.000=0=0=1,
7.500=300test7.png=1.000=0=0=1,
8.000=300test8.png=1.000=0=0=1,
8.500=300test9.png=1.000=0=0=1,
9.000=300color.png=1.000=0=0=1,
14.000=140.png=1.000=0=0=1,
48.000=150.png=1.000=0=0=1,
80.000=160.png=1.000=0=0=1,
112.000=170.png=1.000=0=0=1,
144.000=180.png=1.000=0=0=1,
176.000=190.png=1.000=0=0=1,
208.000=200.png=1.000=0=0=1,
240.000=210.png=1.000=0=0=1,
240.500=210f.png=1.000=1=0=1,
272.000=220.png=1.000=0=0=1,
272.500=220f.png=1.000=1=0=1,
304.000=230.png=1.000=0=0=1,
304.500=230f.png=1.000=1=0=1,
320.000=240.png=1.000=0=0=1,
320.500=240f.png=1.000=1=0=1,
336.000=250.png=1.000=0=0=1,
336.500=250f.png=1.000=1=0=1,
352.000=260.png=1.000=0=0=1,
352.500=260f.png=1.000=1=0=1,
368.000=270.png=1.000=0=0=1,
368.500=270f.png=1.000=1=0=1,
384.000=280.png=1.000=0=0=1,
384.500=280f.png=1.000=1=0=1,
400.000=290.png=1.000=0=0=1,
400.500=290f.png=1.000=1=0=1,
416.000=300.png=1.000=0=0=1,
416.500=300f.png=1.000=1=0=1,
432.000=blink1.png=1.000=0=0=1,
433.000=blink2.png=1.000=0=0=1,
434.000=blink3.png=1.000=0=0=1,
435.000=blink1.png=1.000=0=0=1,
436.000=blink2.png=1.000=0=0=1,
437.000=blink3.png=1.000=0=0=1,
438.000=blink1.png=1.000=0=0=1,
439.000=blink2.png=1.000=0=0=1,
440.000=blink3.png=1.000=0=0=1,
441.000=blink1.png=1.000=0=0=1,
442.000=blink2.png=1.000=0=0=1,
443.000=blink3.png=1.000=0=0=1,
444.000=blink1.png=1.000=0=0=1,
445.000=blink2.png=1.000=0=0=1,
446.000=blink3.png=1.000=0=0=1,
447.000=blink1.png=1.000=0=0=1,
448.000=blink2.png=1.000=0=0=1,
449.000=blink3.png=1.000=0=0=1,
450.000=blink1.png=1.000=0=0=1,
451.000=blink2.png=1.000=0=0=1,
452.000=blink3.png=1.000=0=0=1,
453.000=blink1.png=1.000=0=0=1,
454.000=blink2.png=1.000=0=0=1,
455.000=blink3.png=1.000=0=0=1,
456.000=blink1.png=1.000=0=0=1,
457.000=blink2.png=1.000=0=0=1,
458.000=blink3.png=1.000=0=0=1,
459.000=blink1.png=1.000=0=0=1,
460.000=blink2.png=1.000=0=0=1,
461.000=blink3.png=1.000=0=0=1,
462.000=blink1.png=1.000=0=0=1,
463.000=blink2.png=1.000=0=0=1,
464.000=300end1.png=1.000=0=0=1,
464.500=300end2.png=1.000=1=0=1,
465.000=300grey.png=1.000=1=0=1,
99999=-nosongbg-=1.000=0=0=0 // don't automatically add -songbackground-
;
// cache tags:
#FIRSTBEAT:16.000;
#LASTBEAT:466.000;
#SONGFILENAME:Songs/Music V.I.P ^_^/(Kommisar) 300/300.sm;
#HASMUSIC:1;
#HASBANNER:1;
#MUSICLENGTH:149.080;
// end cache tags

//---------------dance-single - ----------------
#NOTES:
     dance-single:
     :
     Challenge:
     15:
     1.000,1.000,1.000,1.000,0.849,1084.000,478.000,182.000,0.000,203.000:
0000
0000
0000
0000
,
0000
0000
0000
0000
,
0000
0000
0000
0000
,
0000
0000
0000
0000
,
1001
1100
1001
0101
,
1100
0000
0000
0000
0101
0000
0000
0000
0110
0000
0000
0000
1001
0000
0010
0001
,
1100
0101
0110
1100
,
0011
0000
0000
0000
1100
0000
0000
0000
0101
0000
0000
0000
1100
0001
1000
0001
,
0110
0000
0000
0000
1100
0000
0000
0000
0101
0000
0000
0000
1100
0001
0010
0100
,
1001
0000
0000
0000
0000
0000
0000
0000
0011
0000
0000
0000
0000
0000
0000
0000
1010
0000
0000
0000
0000
0000
0000
0000
1100
0001
1000
0001
1000
0000
0000
0000
,
0110
0000
0000
0000
0000
0000
0000
0000
0011
1000
0001
1000
0001
0000
0000
0000
0110
0000
0000
0000
0000
0000
0000
0000
1100
0001
1000
0001
1000
0000
0000
0000
,
0011
0000
1000
0000
0100
0000
0010
0000
1001
0000
0010
0000
0100
0000
1000
0000
0011
0000
1000
0000
0100
0010
0001
0010
1100
0000
0000
0000
0000
0000
0000
0000
,
1001
0100
1011
0001
0110
1000
0111
0001
,
0110
1000
0111
0100
1010
0001
1011
1110
,
1001
0010
1101
0010
1001
0100
1011
0001
,
1100
0000
0010
0000
1011
0000
0100
0000
1010
0000
0001
1100
1011
0000
0111
0000
,
1001
0100
0010
0000
1101
0000
0001
0000
1100
0001
1000
0000
0111
0000
0100
0000
,
1001
0010
0100
0000
1110
0000
0001
0000
1100
0010
0001
0000
1101
0000
0111
0000
,
0011
1000
0100
0000
1011
0000
0001
0000
1010
0100
0010
0000
0111
0000
1000
0000
,
0110
0001
1000
0000
1101
0000
0010
0000
0101
0010
0100
1001
1101
0000
1110
0000
,
2001
0100
0011
0100
0011
0100
0011
0100
,
0011
0000
0100
0000
0011
0000
0100
0000
0011
0000
0100
0000
0011
0000
0110
3000
,
1002
0010
1100
0010
1100
0010
1100
0010
,
1100
0000
0010
0000
1100
0000
0010
0000
1100
0000
0010
1100
1010
0000
1100
0003
,
1002
0003
0000
0000
0010
0000
0002
0003
1110
0000
0000
0000
0002
0003
0000
0000
1002
0003
0000
0000
0010
0000
0002
0003
1110
0000
0000
0000
0002
0003
0000
0000
,
2001
3000
0000
0000
2000
3000
0002
0003
1110
0000
0000
0000
2000
3000
0000
0000
0012
0003
0000
0000
0100
0000
2000
3000
0111
0000
0000
0000
1012
0003
0000
0000
,
2001
3000
0000
0000
2000
3000
0002
0003
1110
0000
0000
0000
2000
3000
0000
0000
0012
0003
0000
0000
0100
0000
2000
3000
0111
0000
0000
0000
0002
0003
0000
0000
,
2010
3000
0000
0000
2000
3000
0002
0003
1110
0000
0000
0000
2000
3000
0000
0000
0012
0003
0000
0000
0100
0000
2001
3000
0111
0000
0000
0000
1102
0003
0000
0000
,
1001
0100
0010
0000
1101
0010
0100
0000
1001
0010
0001
0000
1110
0001
0010
0000
,
1100
0001
1000
0000
1011
0100
0010
0000
1100
0001
0010
0000
0111
1000
0111
0000
,
1100
0010
0001
0000
1110
0001
0010
0000
0101
0010
0100
0000
1011
0100
0010
0000
,
1001
0010
0100
0000
1011
0100
1000
0000
0101
0010
0100
1001
0111
0000
1101
0000
,
1001
0010
0100
0000
1011
0100
0010
0000
1001
0100
1000
0000
0111
1000
0100
0000
,
0011
1000
0001
0000
1101
0010
0100
0000
0011
1000
0100
0000
1110
0001
1110
0000
,
0011
0100
1000
0000
0111
1000
0100
0000
1010
0100
0010
0000
1101
0010
0100
0000
,
1001
0100
0010
0000
1101
0010
0001
0000
1010
0100
0010
1001
1110
0000
1011
0000
,
1001
1100
1100
1100
,
0011
0000
0011
0000
0011
0000
0011
0011
,
1001
0100
0010
0001
1100
0001
0010
0100
1001
0010
0100
0010
0101
0010
0100
1000
,
0011
1000
0001
1000
0011
0100
1000
0100
1001
0010
0100
1001
0110
0001
1100
0010
,
1001
0100
0010
0000
1101
0010
0100
0000
0011
0100
0010
0000
1101
0010
0100
0000
,
1010
0001
1000
0000
1011
0100
0001
0000
1100
0010
0001
0000
1110
0001
1110
0000
,
1001
0010
0100
0000
1011
0100
1000
0000
0110
0001
0100
0000
1011
0100
0010
0000
,
0101
0010
0100
0000
1110
0001
1000
0000
0011
1000
0100
0011
1011
0100
1011
0000
,
1001
0100
0011
1000
0110
0001
1100
0010
,
1100
0001
1000
0001
1100
0001
1000
0001
0110
1000
0010
1000
0110
1000
0011
1000
,
0101
0000
1000
0001
0110
1000
0001
0000
1100
0000
0001
1000
0110
0000
0001
0000
,
0101
0000
1000
0001
0110
1000
0001
0000
0110
0000
1000
0011
1100
0000
1001
0000
,
1100
0010
1101
0010
0101
1000
0111
1000
,
0011
0000
0100
0001
1110
0000
0001
0000
1010
0000
0100
0000
1011
0000
1110
0000
,
1001
0010
1101
0001
0110
1000
0111
1000
,
0011
0000
0100
0001
1110
0000
0001
0000
1100
0001
1000
0011
1101
0000
0111
0000
,
1001
0010
0000
0010
1100
0000
0002
0003
0110
0000
0000
0000
1002
0003
0000
0000
,
0011
0000
0000
0000
1001
0000
0200
0300
1010
0000
0100
0000
0002
0003
0100
0000
,
1000
0010
0000
0010
1100
0000
0002
0003
0110
0000
0000
0000
1002
0003
0000
0000
,
0011
0000
0000
0000
1010
0000
0200
0300
1010
0000
0001
1010
0102
0003
1010
0000
,
1001
0010
0100
0010
1101
0000
0002
0003
1010
0000
0010
0000
1102
0003
0010
0000
,
1001
0000
0010
0000
1101
0000
0200
0300
0011
0000
0100
0000
1012
0003
1110
0000
,
1001
0010
0100
0010
1101
0000
0002
0003
1010
0000
0100
0000
1012
0003
0010
0000
,
1100
0000
0001
0000
1011
0000
0200
0300
1001
0000
0010
1001
1102
0003
1110
0000
,
1001
0010
1101
0001
1100
0010
0111
1000
,
0110
0001
1011
0100
1001
0010
1101
1101
,
1001
0100
1110
0001
1010
0100
1101
0010
,
0101
0000
1000
0000
0111
0000
0010
0000
1001
0000
0100
1001
0111
0000
1110
0000
,
1001
0010
0111
1000
0110
0001
1110
0010
,
0101
0010
1101
0001
0110
1000
0111
0111
,
1001
0100
1011
1000
0110
0001
1011
0100
,
1010
0000
0100
0000
1011
0000
0001
0000
1010
0000
0100
1001
0111
0000
0111
0000
,
1002
0003
0000
0000
0010
0000
0002
0003
1110
0000
0000
0000
0002
0003
0000
0000
0012
0003
0000
0000
0000
0000
0002
0003
1110
0000
0000
0000
0002
0003
0000
0000
,
2010
3000
0000
0000
2000
3000
0002
0003
1110
0000
0000
0000
2000
3000
0000
0000
0012
0003
0000
0000
0100
0000
2000
3000
0111
0000
0000
0000
0002
0003
0000
0000
,
2010
3000
0000
0000
2000
3000
0002
0003
1110
0000
0000
0000
2000
3000
0000
0000
0012
0003
0000
0000
0100
0000
2000
3000
0111
0000
0000
0000
0002
0003
0000
0000
,
2100
3000
0000
0000
2000
3000
0002
0003
1110
0000
0000
0000
2000
3000
0000
0000
0012
0003
0000
0000
0100
0000
2000
3000
0111
0000
0000
0000
0002
0003
0000
0000
,
1002
0003
0000
0000
0010
0000
0002
0003
1110
0000
0000
0000
0002
0003
0000
0000
0102
0003
0000
0000
1000
0000
0002
0003
1110
0000
0000
0000
0002
0003
0000
0000
,
2010
3000
0000
0000
2000
3000
0002
0003
1110
0000
0000
0000
2000
3000
0000
0000
0102
0003
0000
0000
0010
0000
2000
3000
0111
0000
0000
0000
0002
0003
0000
0000
,
2100
3000
0000
0000
2000
3000
0002
0003
1110
0000
0000
0000
2000
3000
0000
0000
0102
0003
0000
0000
0010
0000
2000
3000
0111
0000
0000
0000
0002
0003
0000
0000
,
2100
3000
0000
0000
2000
3000
0002
0003
1110
0000
0000
0000
2000
3000
0000
0000
0102
0003
0000
0000
0010
0000
2001
3000
0111
0000
0000
0000
1102
0003
0000
0000
,
1001
0010
1101
0001
0110
1000
1110
0001
,
0110
1000
1110
0001
1010
0100
1011
1011
,
1001
0100
1110
0001
0101
0010
1101
1000
,
0110
0000
0001
0000
1011
0000
0100
0000
1010
0000
0100
1001
1011
0000
1011
0000
,
1002
0003
0000
0000
0000
0000
0002
0003
1110
0000
0000
0000
0002
0003
0000
0000
1002
0003
0000
0000
0000
0000
0002
0003
1110
0000
0000
0000
0002
0003
0000
0000
,
2010
3000
0000
0000
2000
3000
0002
0003
1110
0000
0000
0000
2000
3000
0000
0000
0012
0003
0000
0000
0000
0000
2000
3000
0111
0000
0000
0000
0112
0003
0000
0000
,
2100
3000
0000
0000
2000
3000
0002
0003
1110
0000
0000
0000
2000
3000
0000
0000
0012
0003
0000
0000
0000
0000
2000
3000
0111
0000
0000
0000
0002
0003
0000
0000
,
2100
3000
0000
0000
2000
3000
0002
0003
1110
0000
0000
0000
2000
3000
0000
0000
0012
0003
0000
0000
0000
0000
2001
3000
0111
0000
0000
0000
0112
0003
0000
0000
,
1001
0100
1110
0001
1100
0010
1110
0001
,
0110
1000
0111
0100
1001
0010
1101
1101
,
1001
0010
1101
1000
0110
0001
0111
1000
,
0101
0000
0010
0000
1101
0000
1000
0000
0011
0000
0100
1001
1011
0000
1011
0000
,
1002
0003
0000
0000
0000
0000
0002
0003
1110
0000
0000
0000
0002
0003
0000
0000
1002
0003
0000
0000
0000
0000
0002
0003
1110
0000
0000
0000
0002
0003
0000
0000
,
2010
3000
0000
0000
2000
3000
0002
0003
1110
0000
0000
0000
2000
3000
0000
0000
0012
0003
0000
0000
0000
0000
2000
3000
0111
0000
0000
0000
0112
0003
0000
0000
,
2100
3000
0000
0000
2000
3000
0002
0003
1110
0000
0000
0000
2000
3000
0000
0000
0012
0003
0000
0000
0000
0000
2000
3000
0111
0000
0000
0000
0002
0003
0000
0000
,
2100
3000
0000
0000
2000
3000
0002
0003
1110
0000
0000
0000
2000
3000
0000
0000
0012
0003
0000
0000
0000
0000
2001
3000
0111
0000
0000
0000
0112
0003
0000
0000
,
1100
0010
1101
0001
0110
1000
1110
0001
,
0110
1000
1110
0001
1010
0100
1011
1011
,
1001
0100
1110
0001
0101
0010
1101
1000
,
0110
0000
0001
0000
1011
0000
0100
0000
1010
0000
0100
1001
1011
0000
1011
0000
,
1002
0003
0000
0000
0000
0000
0002
0003
1110
0000
0000
0000
0002
0003
0000
0000
1002
0003
0000
0000
0000
0000
0002
0003
1110
0000
0000
0000
0002
0003
0000
0000
,
2010
3000
0000
0000
0000
0000
0002
0003
1110
0000
0000
0000
2000
3000
0000
0000
0012
0003
0000
0000
0000
0000
2000
3000
0111
0000
0000
0000
0112
0003
0000
0000
,
2100
3000
0000
0000
2000
3000
0002
0003
1110
0000
0000
0000
2000
3000
0000
0000
0012
0003
0000
0000
0000
0000
2000
3000
0111
0000
0000
0000
0002
0003
0000
0000
,
2100
3000
0000
0000
2000
3000
0002
0003
1110
0000
0000
0000
2000
3000
0000
0000
0012
0003
0000
0000
0000
0000
2001
3000
0111
0000
0000
0000
0112
0003
0000
0000
,
1001
0010
1101
0001
0110
1000
1110
0101
,
0110
1000
1110
0001
1010
0100
1011
1011
,
1001
0000
0100
0000
1110
0000
0001
0000
0101
0000
0010
0000
1101
0000
0010
0100
,
1001
0000
0100
0000
1011
0000
0100
0000
1001
0100
0010
0001
1000
0100
0010
0001
,
1100
0000
1100
0000
1100
0000
1100
1100
,
0011
0000
0011
0000
0011
0000
0011
0011
,
1001
0000
0000
0000
1001
0000
0000
0000
1001
0000
0000
0000
1001
0000
1001
0010
,
1100
0000
0000
0000
1100
0000
0000
0000
0001
1000
0001
1000
0001
1000
0001
1000
,
0001
0010
0100
1000
0001
0010
0100
1000
0001
1000
0001
1000
0100
0010
0001
1000
,
0001
1000
0001
0010
0100
1000
0100
0010
0001
1000
0001
1000
0100
0010
0001
1000
,
0001
0010
0100
1000
0001
0010
0100
1000
0001
1000
0001
1000
0100
0010
0001
0010
,
0100
1000
0001
1000
0001
1000
0100
0010
0001
0010
0100
1000
0001
1000
0100
0010
,
0001
1000
0001
1000
0001
0010
0100
1000
0001
0010
0100
1000
0001
1000
0001
1000
,
0100
0010
0001
1000
0001
1000
0010
0100
0010
0100
0001
0010
0100
1000
0001
0010
,
0100
1000
0001
1000
0001
1000
0100
0010
0001
1000
0001
1000
0001
0010
0100
1000
,
0001
0100
0001
0100
0001
0010
0100
1000
0001
1000
0001
0010
0100
1000
0100
0010
,
2202
0000
3303
0000
;
